<?xml version="1.0" standalone="no"?>
<!DOCTYPE svg PUBLIC "-//W3C//DTD SVG 1.1//EN" "http://www.w3.org/Graphics/SVG/1.1/DTD/svg11.dtd" >
<svg xmlns="http://www.w3.org/2000/svg">
<metadata>
This is a custom SVG webfont generated by Font Squirrel.
Copyright   : Copyright  MediaLoot 2011
Designer    : Tony Thomas
Foundry     : MediaLoot
Foundry URL : httpwwwmedialootcom
</metadata>
<defs>
<font id="SignifyLiteRegular" horiz-adv-x="2048" >
<font-face units-per-em="2048" ascent="1638" descent="-410" />
<missing-glyph horiz-adv-x="512" />
<glyph unicode=" "  horiz-adv-x="512" />
<glyph unicode="&#x09;" horiz-adv-x="512" />
<glyph unicode="&#xa0;" horiz-adv-x="512" />
<glyph unicode="!" />
<glyph unicode="&#x22;" />
<glyph unicode="#" />
<glyph unicode="$" />
<glyph unicode="%" />
<glyph unicode="&#x26;" />
<glyph unicode="'" />
<glyph unicode="(" />
<glyph unicode=")" />
<glyph unicode="*" />
<glyph unicode="+" />
<glyph unicode="," />
<glyph unicode="-" />
<glyph unicode="." />
<glyph unicode="/" />
<glyph unicode="0" />
<glyph unicode="1" horiz-adv-x="1816" d="M121 786l788 787l787 -787h-492v-786h-590v786h-493z" />
<glyph unicode="2" horiz-adv-x="1734" d="M80 494v589h788v492l787 -787l-787 -786v492h-788z" />
<glyph unicode="3" horiz-adv-x="1742" d="M84 782h491v787h590v-787h494l-787 -786z" />
<glyph unicode="4" horiz-adv-x="1794" d="M111 793l786 786v-492h786v-589h-786v-492z" />
<glyph unicode="5" horiz-adv-x="1429" d="M113 8v1204l1204 -604z" />
<glyph unicode="6" horiz-adv-x="1574" d="M147 4v1278h482v-1278h-482zM946 4v1278h481v-1278h-481z" />
<glyph unicode="7" horiz-adv-x="1591" d="M115 -8v1360h1362v-1360h-1362z" />
<glyph unicode="8" d="M184 16v240v360h240v-360h960v295l388 -387l-388 -387v239h-960h-240zM276 1067l388 389v-242h960h240v-239v-359h-240v359h-960v-295z" />
<glyph unicode="9" horiz-adv-x="1677" d="M162 481v1035h1034l-311 -312q14 -6 40.5 -19.5t99.5 -65.5t138.5 -117.5t141 -178t125 -243.5t73 -319.5t2.5 -399.5q-25 47 -69.5 121.5t-173.5 260t-250 315.5t-272.5 210t-268.5 23z" />
<glyph unicode=":" />
<glyph unicode=";" />
<glyph unicode="&#x3c;" horiz-adv-x="1931" d="M160 707l919 708v-534l693 534v-1417l-693 534v-534z" />
<glyph unicode="=" />
<glyph unicode="&#x3e;" horiz-adv-x="1976" d="M182 -6v1417l692 -534v534l920 -709l-920 -708v534z" />
<glyph unicode="?" />
<glyph unicode="@" />
<glyph unicode="A" horiz-adv-x="2029" d="M111 -2v227v905v113v113h790v-226h-565v-905h1358v226h225v-226v-227h-225h-1583zM1024 315q-6 68 -6 133q0 415 262 672q98 96 188 135l-208 215h659v-718l-184 219q-35 17 -74 17q-26 0 -52 -8q-67 -19 -135.5 -75.5t-134 -130.5t-123 -154.5t-100.5 -148.5t-67 -111z " />
<glyph unicode="B" horiz-adv-x="1792" d="M154 6v1010h1484v-1010h-1484zM154 1130l227 343h438v-343h-665zM973 1130v343h438l227 -343h-665z" />
<glyph unicode="C" horiz-adv-x="1863" d="M129 811q0 334 235.5 568.5t567.5 234.5t567.5 -234.5t235.5 -568.5q0 -332 -235.5 -567.5t-567.5 -235.5t-567.5 235.5t-235.5 567.5zM330 811q0 -250 177 -426t425 -176t425 176t177 426t-177 426t-425 176t-425 -176t-177 -426zM590 819q0 190 100 291 q100 102 285 102q150 0 227 -57q82 -57 123 -180l-207 -47q-12 35 -24 51q-18 27 -47 43q-29 14 -66 14q-80 0 -123 -65q-33 -49 -33 -150q0 -125 39 -174q39 -47 109 -47q68 0 102 37q35 39 51 111l207 -62q-20 -84 -65 -145q-49 -61 -113 -88q-66 -31 -168 -31 q-125 0 -205 37q-80 35 -135 127q-57 90 -57 233z" />
<glyph unicode="D" horiz-adv-x="1900" d="M152 793q0 330 234.5 564t563.5 234q190 0 348 -77.5t253.5 -198.5t146.5 -257t51 -265q0 -332 -234.5 -565.5t-564.5 -233.5q-332 0 -565 236.5t-233 562.5zM352 793q0 -193 111 -349l833 836q-156 111 -346 111q-248 0 -423 -175t-175 -423zM604 303q156 -111 346 -110 q248 0 423 176t175 424q0 190 -110 346z" />
<glyph unicode="E" horiz-adv-x="2426" d="M106 14v1420v104h2214v-1524h-2214zM244 256l618 573l-618 465v-1038zM309 1399l924 -676l924 676h-1848zM324 154h1736l-563 618l-268 -199l-266 189zM1587 834l596 -641v1101z" />
<glyph unicode="F" horiz-adv-x="2351" d="M170 10v1094h2011v-1094h-2011zM170 1233v88l88 262h786l89 -262h1048v-88h-2011z" />
<glyph unicode="G" horiz-adv-x="2177" d="M166 -6l2 971l342 872h1149l350 -872l2 -971h-1845zM342 1010h1495l-252 710h-999zM467 1128v80h1227v-80h-1227zM569 1331v80h1039v-80h-1039zM643 1526v80h889v-80h-889zM756 381h665v237h-665v-237z" />
<glyph unicode="H" horiz-adv-x="1933" d="M133 1102q0 178 137.5 303t331.5 125q223 0 365 -162q141 162 364 162q195 0 332 -125t137 -303q0 -10 -2 -30.5t-18.5 -86t-45 -134.5t-91 -172.5t-146.5 -203.5t-222 -224t-308 -241q-233 160 -405.5 331t-250.5 301t-123 237.5t-49 164.5z" />
<glyph unicode="I" horiz-adv-x="2330" d="M121 758q348 365 842 465q123 25 202 24q23 0 65 -3t167 -29.5t244.5 -72.5t278.5 -146.5t290 -237.5q-131 -137 -287 -238.5t-285 -147.5t-238.5 -73t-170.5 -29l-64 -4q-23 0 -64.5 3t-166.5 30t-245 73t-278.5 147.5t-289.5 238.5zM774 758q0 -154 113.5 -261.5 t277.5 -107.5t277.5 107.5t113.5 261.5q0 152 -114.5 260t-276 108t-276.5 -108t-115 -260zM1034 758q0 51 39 87t92.5 36t92 -36t38.5 -87t-38.5 -87t-92 -36t-92.5 36t-39 87z" />
<glyph unicode="J" horiz-adv-x="1712" d="M154 4v1182l577 629h828v-1811h-1405zM307 154h1118v1525h-610v-589h-508v-936z" />
<glyph unicode="K" horiz-adv-x="2177" d="M168 119v526q0 55 38 94t93 39h262q55 0 94 -39t39 -94v-526q0 -53 -39 -92t-94 -39h-262q-55 0 -93 39t-38 92zM825 119v1581q0 53 39 92t92 39h265q53 0 92 -39t39 -92v-1581q0 -53 -39 -92t-92 -39h-265q-53 0 -92 39t-39 92zM1483 119v921q0 55 39 94.5t94 39.5h262 q55 0 93 -39t38 -95v-921q0 -53 -38 -92t-93 -39h-262q-55 0 -94 39t-39 92z" />
<glyph unicode="L" horiz-adv-x="1728" d="M188 104v1012q0 47 34 81t79 34h21q16 209 170.5 353.5t365.5 144.5t364.5 -144.5t170.5 -353.5h32q45 0 80 -34t35 -81v-1012q0 -47 -33.5 -81.5t-81.5 -34.5h-1124q-45 0 -79 34.5t-34 81.5zM469 1231h776q-16 147 -126.5 248.5t-260.5 101.5q-152 0 -262.5 -101.5 t-126.5 -248.5zM680 670q0 -106 100 -168v-226h197v226q96 59 96 168q0 82 -58.5 139t-140.5 57q-80 0 -137 -57t-57 -139z" />
<glyph unicode="M" horiz-adv-x="1972" d="M147 293q0 123 110 209t267 86q160 0 160 -27v778v269q0 23 16.5 38t38.5 15h1030q23 0 39.5 -15.5t16.5 -37.5v-269v-1073h-2q-16 -94 -107.5 -181t-226.5 -87q-156 0 -265.5 87t-109.5 208q0 123 109.5 209t265.5 86q162 0 162 -27v692h-793v-960v-27h-2 q-14 -94 -106.5 -181t-225.5 -87q-156 0 -266.5 87t-110.5 208z" />
<glyph unicode="N" horiz-adv-x="2121" d="M166 309v383v193v-127v127h256v770h127h1282h127v-129v-1409v-129h-127h-1409v8q-111 23 -183.5 109.5t-72.5 203.5zM293 309q0 -61 36 -110t93 -70v-12h1409v1409h-1282v-1280h-127v512h-129v-66v-190v-193zM678 246v127h897v-127h-897zM678 502v127h768v-127h-768z M678 758v127h1024v-127h-1024zM678 1014v383h512v-383h-512zM1319 1014v127h256v-127h-256zM1319 1270v127h383v-127h-383z" />
<glyph unicode="O" horiz-adv-x="1900" d="M119 834q0 346 243.5 588.5t587.5 242.5t588 -242.5t244 -588.5q0 -344 -244 -588t-588 -244t-587.5 244t-243.5 588zM258 813q14 -41 37.5 -81t57.5 -91t48 -76q10 -14 15.5 -32.5t4.5 -29.5l-3 -35q-2 -24 -2 -32v-2q-1 -6 -1 -11q0 -38 25 -63q14 -18 45 -48.5 t52.5 -57.5t31.5 -57l4 -2q68 -41 170 -74q6 0 24.5 7t78.5 11v2q0 8 20.5 19.5t52 27t46.5 25.5q19 22 18 43q0 28 -36 52q-43 29 -83 29q-18 0 -35 -5q-25 16 -96 80.5t-121 85.5q-23 20 -64.5 33.5t-75.5 20.5t-59.5 31.5t-25.5 67.5q-4 16 0 24.5t-5 22t-10 17.5 t-13.5 15t-15.5 14.5t-17.5 13.5t-16.5 12q-4 12 -3 23q0 38 44 59q22 10 41 10q28 0 47 -22q16 -16 17 -43q29 2 69.5 56t73.5 60q12 10 44 13.5t47.5 10.5t0.5 34q8 8 32 18l38 17q14 6 22.5 24.5t-12.5 42.5q-12 55 -60 69q-9 3 -18 2q-35 0 -53 -46q-8 -3 -15 -3 q-26 0 -30 38v10q0 48 35 74q18 14 43 8q27 -2 38 10t4 27.5t-26 23.5q0 6 -4 2q-16 6 -20 4q-25 16 -22 44t18.5 54.5t14.5 53t-36 39.5q-285 -244 -358 -396q-24 -71 -25 -201q0 -34 2 -73zM449 702q-7 -3 -8 -7q0 -9 24 -23q16 -20 35 -15q8 31 -25 39v2q-2 2 -7 2t-7 2 h-12zM590 909l2 -4h2q6 2 10 6q-8 0 -14 -2zM725 1546q38 3 74 3q136 0 223 -44q8 -27 36.5 -35t57.5 -5t50.5 -8t19.5 -40l4 -4l2 -10q2 -2 2 4q50 -50 50 -69q0 -11 -18 -11h-5h-4q-35 4 -46 -30q-4 -14 -4 -29q0 -22 9 -46q14 -42 41 -55q25 -10 41 -4t13 25.5t-28 32.5 q-2 23 12 22q27 -2 52 -43q10 -18 10 -31q0 -16 -14 -26q-4 -4 -7 -4l-2 -2q-37 -27 -40 -114t-9 -103q-9 -19 -9 -32q0 -20 26 -22h4q36 0 57 35q10 18 4 41q-8 23 6.5 35t36 15t35.5 10.5t4 23.5q21 -11 35 -11q27 0 31 40q1 9 1 17q0 42 -26 69q10 43 33 16q20 -29 6 -59 q2 -10 5 -16.5t10 -12.5t11.5 -8t15.5 -6t13 -6q2 0 4 -2q20 -8 21 -27q0 -13 -10 -31q-24 -81 -116 -81q-27 0 -61 7q-31 -12 -51 -40.5t-38.5 -68.5t-30.5 -58q-44 -80 -44 -140q0 -58 42 -98q25 -23 51 -28t54 6.5t47.5 23.5t45.5 33q10 1 19 1q57 0 71 -59q5 -19 5 -35 q0 -45 -31 -81q-4 -16 -4 -19q180 211 180 482l-6 86q-7 -4 -15 -5q-23 0 -49 37q-20 29 -6 27q8 0 29 -16q20 4 30 12q-12 70 -36 135l-11.5 12t-9.5 11q0 4 -1 12t-1 14v2q-92 188 -273.5 304t-398.5 116q-41 0 -61 -2q-20 -4 -33 -6h-12q-66 -11 -119 -27zM752 1201 q-3 -15 -4 -27q0 -24 14 -33q20 8 29.5 39.5t2 59.5t-29.5 26q-2 0 -6 -1t-6 -1q10 -17 0 -63zM762 973q-10 -2 -10 -7q0 -7 20 -20h16q2 -2 -4 -8q25 18 11.5 28.5t-33.5 6.5zM862 1331l6 6q18 8 11 23q-2 4 -11 4q-2 2 -8 2q-2 0 -5 -1t-5 -1q-21 -4 -21 -21q0 -33 33 -12 zM853 1315q-9 -13 -9 -27q0 -20 18 -41q18 -25 6 -53.5t-11 -59t36 -40.5q10 25 42 64.5t48 74.5q10 21 10 44q0 14 -4 30q-11 46 -55 46q-7 0 -14 -1q-45 -6 -67 -37zM1196 1087q-8 0 -8 -4q0 -6 14 -20q-12 -31 15 -33q18 0 30 19q2 16 -17 28q-17 11 -30 11q-2 -1 -4 -1z " />
<glyph unicode="P" horiz-adv-x="2043" d="M160 322v968h432v215v109h106h754v-109v-215h432v-968h-432v-109h-106v-109v-106h-648h-106v106v218h-432zM483 537h109v215h106v-215v-215v-218h432v218h107h109v215v215h106v-215h217v323h-1186v-323zM698 1290h648v215h-648v-215zM1452 1075h217v109h-217v-109z" />
<glyph unicode="Q" horiz-adv-x="2095" d="M152 334v1122q0 47 32.5 79t77.5 32h1571q47 0 79 -32t32 -79v-1122q0 -47 -32 -79t-79 -32h-1571q-45 0 -77.5 32t-32.5 79zM375 446h1345v897h-1345v-897zM487 55.5q0 22.5 16.5 39t39.5 16.5h1009q23 0 39.5 -16.5t16.5 -39t-16.5 -40t-39.5 -17.5h-1009 q-23 0 -39.5 17.5t-16.5 40zM823 559v672l449 -336z" />
<glyph unicode="R" horiz-adv-x="1847" d="M125 811q0 330 234.5 564.5t564 234.5t564 -234.5t234.5 -564.5q0 -332 -234.5 -565.5t-564 -233.5t-564 233.5t-234.5 565.5zM326 811q0 -248 175 -424t422.5 -176t423 176t175.5 424t-175.5 423t-423 175t-422.5 -175t-175 -423zM625 512v598h336q90 0 143 -16 q51 -14 80 -60q31 -43 30 -106q0 -53 -22 -94q-27 -41 -64 -64q-29 -16 -71 -25q33 -10 53 -24q23 -23 31 -35q25 -33 28 -41l54 -133h-199l-92 143q-31 47 -37 52q-20 14 -49 14h-19l-4 -209h-198zM823 811h86q18 0 54 8q20 6 32 21q12 18 13 104q0 35 -21 49 q-16 16 -74 17h-90v-199z" />
<glyph unicode="S" horiz-adv-x="1953" d="M137 993.5q0 270.5 190.5 461t460.5 190.5q268 0 460 -190.5t192 -461.5q0 -188 -101 -344q20 -10 39 -26l406 -406q33 -33 33 -80t-33 -82q-33 -33 -82 -32.5t-82 32.5l-406 406q-10 12 -16 26q-182 -145 -410 -145q-270 0 -460.5 190.5t-190.5 461zM338 993.5 q0 -186.5 132 -318.5t318 -132q160 0 283 100l57 47l41 66q70 111 70 237q0 186 -132 318.5t-318.5 132.5t-318.5 -132t-132 -318.5z" />
<glyph unicode="T" horiz-adv-x="2066" d="M164 1642l196 197l494 -491l-197 -197l-82 82q2 -74 75 -204t210 -267q215 -215 461 -293l25 -8l-99 98l199 197l491 -492l-196 -198q-72 -72 -187 -73q-113 0 -267 70q-310 141 -646 480q-303 303 -436 620q-77 184 -77 315q0 94 40 160z" />
<glyph unicode="U" horiz-adv-x="2420" d="M160 -41v356h2q0 2 -2 7v4q0 37 20 73q6 10 65.5 42t126.5 63l126 57q59 27 61 29q57 27 151.5 59.5t155 61t92.5 67.5q-8 76 -84.5 256t-82.5 291l-2 42q0 177 79 312q88 152 258 213h84h84q170 -61 258 -213q79 -136 79 -312q0 -21 -1 -42q-6 -111 -83 -291t-85 -256 q33 -39 93.5 -67.5t154.5 -61.5t152 -59q2 -2 61 -29l126 -57q67 -31 126 -62.5t66 -42.5q20 -37 20 -73v-4q-2 -4 -2 -7h2v-356h-20h-1031h-1030h-20z" />
<glyph unicode="V" horiz-adv-x="1996" d="M139 6v1837h1719v-1837h-1719zM225 80h172v145h-172v-145zM225 299h172v147h-172v-147zM225 520h172v148h-172v-148zM225 741h172v146h-172v-146zM225 961h172v147h-172v-147zM225 1182h172v147h-172v-147zM225 1401h172v147h-172v-147zM225 1622h172v147h-172v-147z M483 80h1030v807h-1030v-807zM483 961h1030v808h-1030v-808zM1599 80h173v145h-173v-145zM1599 299h173v147h-173v-147zM1599 520h173v148h-173v-148zM1599 741h173v146h-173v-146zM1599 961h173v147h-173v-147zM1599 1182h173v147h-173v-147zM1599 1401h173v147h-173v-147z M1599 1622h173v147h-173v-147z" />
<glyph unicode="W" horiz-adv-x="2418" d="M82 1130q229 252 529 383.5t630 131.5q315 0 595 -136.5t501 -378.5l-213 -233q-383 449 -889 449q-264 0 -505 -117t-435 -332zM434 743q152 166 354.5 253t422 87t421 -87t353.5 -253l-213 -233q-270 299 -562 299q-295 0 -565 -299zM961 278.5q0 112.5 73 194.5 q72 80 175.5 80t174.5 -80q74 -82 74 -194.5t-74 -192.5q-72 -82 -175 -82t-175 82q-73 80 -73 192.5z" />
<glyph unicode="X" horiz-adv-x="1931" d="M152 229l585 584l-585 586l229 227l586 -584l583 584l230 -227l-586 -586l586 -584l-230 -229l-583 584l-586 -584z" />
<glyph unicode="Y" horiz-adv-x="2101" d="M150 1364l288 -287l342 90l92 344l-286 287q36 5 71 5q80 0 158 -25q113 -37 199 -123q141 -141 147 -340l-176 -178q-53 -53 -53 -127q0 -41 16 -80l-131 -131l-10 10q-73 -24 -150 -24q-59 0 -119 14q-140 33 -243 135q-86 86 -124 200q-26 79 -26 160q0 35 5 70z M268 -6l121 362l174 19l549 549l-43 43q-16 16 -16 43q0 25 16 41l80 79l516 519q18 16 44 16t42 -16l170 -172q18 -16 18 -42t-18 -42l-596 -598q-16 -16 -42 -16.5t-44 16.5l-41 43l-211 -209l-338 -340l-20 -174zM1073 543l131 133q37 -18 78 -18q15 0 31 2q57 9 98 51 l80 80l369 -369q10 -8 26 -25q70 -70 70 -168t-69.5 -167.5t-168 -69.5t-168.5 69q-10 10 -22 27zM1587 260q0 -43 29 -72q31 -31 73 -30.5t70 30.5q31 29 31 72t-31 72q-29 29 -70.5 28.5t-72.5 -28.5q-29 -29 -29 -72z" />
<glyph unicode="Z" horiz-adv-x="1525" d="M182 -23l582 928h-465l1044 928l-464 -696h464z" />
<glyph unicode="[" />
<glyph unicode="\" />
<glyph unicode="]" />
<glyph unicode="^" />
<glyph unicode="_" />
<glyph unicode="`" />
<glyph unicode="a" />
<glyph unicode="b" />
<glyph unicode="c" />
<glyph unicode="d" />
<glyph unicode="e" />
<glyph unicode="f" />
<glyph unicode="g" />
<glyph unicode="h" />
<glyph unicode="i" />
<glyph unicode="j" />
<glyph unicode="k" />
<glyph unicode="l" />
<glyph unicode="m" />
<glyph unicode="n" />
<glyph unicode="o" />
<glyph unicode="p" />
<glyph unicode="q" />
<glyph unicode="r" />
<glyph unicode="s" />
<glyph unicode="t" />
<glyph unicode="u" />
<glyph unicode="v" />
<glyph unicode="w" />
<glyph unicode="x" />
<glyph unicode="y" />
<glyph unicode="z" />
<glyph unicode="{" />
<glyph unicode="|" />
<glyph unicode="}" />
<glyph unicode="~" horiz-adv-x="1720" d="M204 393.5q-7 145.5 89 259.5l188 228q37 41 88 80q-45 88 -28.5 195.5t88.5 193.5l186 227q61 74 147.5 110.5t174.5 28.5q94 -8 170 -69l96 -82q109 -86 115 -240q4 -137 -91 -254l-188 -227q-39 -45 -88 -78q31 -68 31 -137q6 -139 -90 -254l-189 -228 q-59 -74 -144 -110.5t-175 -28.5q-98 10 -170 72l-97 80q-106 88 -113 233.5zM400 411.5q-1 -63.5 42 -100.5l99 -80q25 -20 61 -24q86 -10 150 67l188 228q45 51 45 123q-4 49 -31 80h-10q-16 -33 -48 -48.5t-67 -7.5q-39 10 -60 45t-11 74l-4 2l-6 6l-41 33 q-37 -14 -72 -55l-189 -226q-45 -53 -46 -116.5zM735 1117.5q-4 -58.5 31 -97.5h37q4 0 10 -2t8 -2l21 74q10 41 46 60t75 9q39 -8 59 -44t10 -77l-28 -114l10 -9q41 18 71 56l189 227q49 55 45 123q-4 57 -41 92l-98 80q-27 20 -62 27q-86 6 -149 -70l-189 -225 q-41 -49 -45 -107.5z" />
<glyph unicode="&#xad;" />
<glyph unicode="&#xb2;" horiz-adv-x="1734" d="M80 494v589h788v492l787 -787l-787 -786v492h-788z" />
<glyph unicode="&#xb3;" horiz-adv-x="1742" d="M84 782h491v787h590v-787h494l-787 -786z" />
<glyph unicode="&#xb9;" horiz-adv-x="1816" d="M121 786l788 787l787 -787h-492v-786h-590v786h-493z" />
<glyph unicode="&#xc0;" horiz-adv-x="2029" d="M111 -2v227v905v113v113h790v-226h-565v-905h1358v226h225v-226v-227h-225h-1583zM1024 315q-6 68 -6 133q0 415 262 672q98 96 188 135l-208 215h659v-718l-184 219q-35 17 -74 17q-26 0 -52 -8q-67 -19 -135.5 -75.5t-134 -130.5t-123 -154.5t-100.5 -148.5t-67 -111z " />
<glyph unicode="&#xc2;" horiz-adv-x="2029" d="M111 -2v227v905v113v113h790v-226h-565v-905h1358v226h225v-226v-227h-225h-1583zM1024 315q-6 68 -6 133q0 415 262 672q98 96 188 135l-208 215h659v-718l-184 219q-35 17 -74 17q-26 0 -52 -8q-67 -19 -135.5 -75.5t-134 -130.5t-123 -154.5t-100.5 -148.5t-67 -111z " />
<glyph unicode="&#xc3;" horiz-adv-x="2029" d="M933 2175.5q-7 145.5 89 259.5l188 228q37 41 88 80q-45 88 -28.5 195.5t88.5 193.5l186 227q61 74 147.5 110.5t174.5 28.5q94 -8 170 -69l96 -82q109 -86 115 -240q4 -137 -91 -254l-188 -227q-39 -45 -88 -78q31 -68 31 -137q6 -139 -90 -254l-189 -228 q-59 -74 -144 -110.5t-175 -28.5q-98 10 -170 72l-97 80q-106 88 -113 233.5zM1129 2193.5q-1 -63.5 42 -100.5l99 -80q25 -20 61 -24q86 -10 150 67l188 228q45 51 45 123q-4 49 -31 80h-10q-16 -33 -48 -48.5t-67 -7.5q-39 10 -60 45t-11 74l-4 2l-6 6l-41 33 q-37 -14 -72 -55l-189 -226q-45 -53 -46 -116.5zM1464 2899.5q-4 -58.5 31 -97.5h37q4 0 10 -2t8 -2l21 74q10 41 46 60t75 9q39 -8 59 -44t10 -77l-28 -114l10 -9q41 18 71 56l189 227q49 55 45 123q-4 57 -41 92l-98 80q-27 20 -62 27q-86 6 -149 -70l-189 -225 q-41 -49 -45 -107.5zM111 -2v227v905v113v113h790v-226h-565v-905h1358v226h225v-226v-227h-225h-1583zM1024 315q-6 68 -6 133q0 415 262 672q98 96 188 135l-208 215h659v-718l-184 219q-35 17 -74 17q-26 0 -52 -8q-67 -19 -135.5 -75.5t-134 -130.5t-123 -154.5 t-100.5 -148.5t-67 -111z" />
<glyph unicode="&#xc8;" horiz-adv-x="2426" d="M106 14v1420v104h2214v-1524h-2214zM244 256l618 573l-618 465v-1038zM309 1399l924 -676l924 676h-1848zM324 154h1736l-563 618l-268 -199l-266 189zM1587 834l596 -641v1101z" />
<glyph unicode="&#xca;" horiz-adv-x="2426" d="M106 14v1420v104h2214v-1524h-2214zM244 256l618 573l-618 465v-1038zM309 1399l924 -676l924 676h-1848zM324 154h1736l-563 618l-268 -199l-266 189zM1587 834l596 -641v1101z" />
<glyph unicode="&#xcc;" horiz-adv-x="2330" d="M121 758q348 365 842 465q123 25 202 24q23 0 65 -3t167 -29.5t244.5 -72.5t278.5 -146.5t290 -237.5q-131 -137 -287 -238.5t-285 -147.5t-238.5 -73t-170.5 -29l-64 -4q-23 0 -64.5 3t-166.5 30t-245 73t-278.5 147.5t-289.5 238.5zM774 758q0 -154 113.5 -261.5 t277.5 -107.5t277.5 107.5t113.5 261.5q0 152 -114.5 260t-276 108t-276.5 -108t-115 -260zM1034 758q0 51 39 87t92.5 36t92 -36t38.5 -87t-38.5 -87t-92 -36t-92.5 36t-39 87z" />
<glyph unicode="&#xce;" horiz-adv-x="2330" d="M121 758q348 365 842 465q123 25 202 24q23 0 65 -3t167 -29.5t244.5 -72.5t278.5 -146.5t290 -237.5q-131 -137 -287 -238.5t-285 -147.5t-238.5 -73t-170.5 -29l-64 -4q-23 0 -64.5 3t-166.5 30t-245 73t-278.5 147.5t-289.5 238.5zM774 758q0 -154 113.5 -261.5 t277.5 -107.5t277.5 107.5t113.5 261.5q0 152 -114.5 260t-276 108t-276.5 -108t-115 -260zM1034 758q0 51 39 87t92.5 36t92 -36t38.5 -87t-38.5 -87t-92 -36t-92.5 36t-39 87z" />
<glyph unicode="&#xd1;" horiz-adv-x="2121" d="M534 2175.5q-7 145.5 89 259.5l188 228q37 41 88 80q-45 88 -28.5 195.5t88.5 193.5l186 227q61 74 147.5 110.5t174.5 28.5q94 -8 170 -69l96 -82q109 -86 115 -240q4 -137 -91 -254l-188 -227q-39 -45 -88 -78q31 -68 31 -137q6 -139 -90 -254l-189 -228 q-59 -74 -144 -110.5t-175 -28.5q-98 10 -170 72l-97 80q-106 88 -113 233.5zM730 2193.5q-1 -63.5 42 -100.5l99 -80q25 -20 61 -24q86 -10 150 67l188 228q45 51 45 123q-4 49 -31 80h-10q-16 -33 -48 -48.5t-67 -7.5q-39 10 -60 45t-11 74l-4 2l-6 6l-41 33 q-37 -14 -72 -55l-189 -226q-45 -53 -46 -116.5zM1065 2899.5q-4 -58.5 31 -97.5h37q4 0 10 -2t8 -2l21 74q10 41 46 60t75 9q39 -8 59 -44t10 -77l-28 -114l10 -9q41 18 71 56l189 227q49 55 45 123q-4 57 -41 92l-98 80q-27 20 -62 27q-86 6 -149 -70l-189 -225 q-41 -49 -45 -107.5zM166 309v383v193v-127v127h256v770h127h1282h127v-129v-1409v-129h-127h-1409v8q-111 23 -183.5 109.5t-72.5 203.5zM293 309q0 -61 36 -110t93 -70v-12h1409v1409h-1282v-1280h-127v512h-129v-66v-190v-193zM678 246v127h897v-127h-897zM678 502v127 h768v-127h-768zM678 758v127h1024v-127h-1024zM678 1014v383h512v-383h-512zM1319 1014v127h256v-127h-256zM1319 1270v127h383v-127h-383z" />
<glyph unicode="&#xd2;" horiz-adv-x="1900" d="M119 834q0 346 243.5 588.5t587.5 242.5t588 -242.5t244 -588.5q0 -344 -244 -588t-588 -244t-587.5 244t-243.5 588zM258 813q14 -41 37.5 -81t57.5 -91t48 -76q10 -14 15.5 -32.5t4.5 -29.5l-3 -35q-2 -24 -2 -32v-2q-1 -6 -1 -11q0 -38 25 -63q14 -18 45 -48.5 t52.5 -57.5t31.5 -57l4 -2q68 -41 170 -74q6 0 24.5 7t78.5 11v2q0 8 20.5 19.5t52 27t46.5 25.5q19 22 18 43q0 28 -36 52q-43 29 -83 29q-18 0 -35 -5q-25 16 -96 80.5t-121 85.5q-23 20 -64.5 33.5t-75.5 20.5t-59.5 31.5t-25.5 67.5q-4 16 0 24.5t-5 22t-10 17.5 t-13.5 15t-15.5 14.5t-17.5 13.5t-16.5 12q-4 12 -3 23q0 38 44 59q22 10 41 10q28 0 47 -22q16 -16 17 -43q29 2 69.5 56t73.5 60q12 10 44 13.5t47.5 10.5t0.5 34q8 8 32 18l38 17q14 6 22.5 24.5t-12.5 42.5q-12 55 -60 69q-9 3 -18 2q-35 0 -53 -46q-8 -3 -15 -3 q-26 0 -30 38v10q0 48 35 74q18 14 43 8q27 -2 38 10t4 27.5t-26 23.5q0 6 -4 2q-16 6 -20 4q-25 16 -22 44t18.5 54.5t14.5 53t-36 39.5q-285 -244 -358 -396q-24 -71 -25 -201q0 -34 2 -73zM449 702q-7 -3 -8 -7q0 -9 24 -23q16 -20 35 -15q8 31 -25 39v2q-2 2 -7 2t-7 2 h-12zM590 909l2 -4h2q6 2 10 6q-8 0 -14 -2zM725 1546q38 3 74 3q136 0 223 -44q8 -27 36.5 -35t57.5 -5t50.5 -8t19.5 -40l4 -4l2 -10q2 -2 2 4q50 -50 50 -69q0 -11 -18 -11h-5h-4q-35 4 -46 -30q-4 -14 -4 -29q0 -22 9 -46q14 -42 41 -55q25 -10 41 -4t13 25.5t-28 32.5 q-2 23 12 22q27 -2 52 -43q10 -18 10 -31q0 -16 -14 -26q-4 -4 -7 -4l-2 -2q-37 -27 -40 -114t-9 -103q-9 -19 -9 -32q0 -20 26 -22h4q36 0 57 35q10 18 4 41q-8 23 6.5 35t36 15t35.5 10.5t4 23.5q21 -11 35 -11q27 0 31 40q1 9 1 17q0 42 -26 69q10 43 33 16q20 -29 6 -59 q2 -10 5 -16.5t10 -12.5t11.5 -8t15.5 -6t13 -6q2 0 4 -2q20 -8 21 -27q0 -13 -10 -31q-24 -81 -116 -81q-27 0 -61 7q-31 -12 -51 -40.5t-38.5 -68.5t-30.5 -58q-44 -80 -44 -140q0 -58 42 -98q25 -23 51 -28t54 6.5t47.5 23.5t45.5 33q10 1 19 1q57 0 71 -59q5 -19 5 -35 q0 -45 -31 -81q-4 -16 -4 -19q180 211 180 482l-6 86q-7 -4 -15 -5q-23 0 -49 37q-20 29 -6 27q8 0 29 -16q20 4 30 12q-12 70 -36 135l-11.5 12t-9.5 11q0 4 -1 12t-1 14v2q-92 188 -273.5 304t-398.5 116q-41 0 -61 -2q-20 -4 -33 -6h-12q-66 -11 -119 -27zM752 1201 q-3 -15 -4 -27q0 -24 14 -33q20 8 29.5 39.5t2 59.5t-29.5 26q-2 0 -6 -1t-6 -1q10 -17 0 -63zM762 973q-10 -2 -10 -7q0 -7 20 -20h16q2 -2 -4 -8q25 18 11.5 28.5t-33.5 6.5zM862 1331l6 6q18 8 11 23q-2 4 -11 4q-2 2 -8 2q-2 0 -5 -1t-5 -1q-21 -4 -21 -21q0 -33 33 -12 zM853 1315q-9 -13 -9 -27q0 -20 18 -41q18 -25 6 -53.5t-11 -59t36 -40.5q10 25 42 64.5t48 74.5q10 21 10 44q0 14 -4 30q-11 46 -55 46q-7 0 -14 -1q-45 -6 -67 -37zM1196 1087q-8 0 -8 -4q0 -6 14 -20q-12 -31 15 -33q18 0 30 19q2 16 -17 28q-17 11 -30 11q-2 -1 -4 -1z " />
<glyph unicode="&#xd4;" horiz-adv-x="1900" d="M119 834q0 346 243.5 588.5t587.5 242.5t588 -242.5t244 -588.5q0 -344 -244 -588t-588 -244t-587.5 244t-243.5 588zM258 813q14 -41 37.5 -81t57.5 -91t48 -76q10 -14 15.5 -32.5t4.5 -29.5l-3 -35q-2 -24 -2 -32v-2q-1 -6 -1 -11q0 -38 25 -63q14 -18 45 -48.5 t52.5 -57.5t31.5 -57l4 -2q68 -41 170 -74q6 0 24.5 7t78.5 11v2q0 8 20.5 19.5t52 27t46.5 25.5q19 22 18 43q0 28 -36 52q-43 29 -83 29q-18 0 -35 -5q-25 16 -96 80.5t-121 85.5q-23 20 -64.5 33.5t-75.5 20.5t-59.5 31.5t-25.5 67.5q-4 16 0 24.5t-5 22t-10 17.5 t-13.5 15t-15.5 14.5t-17.5 13.5t-16.5 12q-4 12 -3 23q0 38 44 59q22 10 41 10q28 0 47 -22q16 -16 17 -43q29 2 69.5 56t73.5 60q12 10 44 13.5t47.5 10.5t0.5 34q8 8 32 18l38 17q14 6 22.5 24.5t-12.5 42.5q-12 55 -60 69q-9 3 -18 2q-35 0 -53 -46q-8 -3 -15 -3 q-26 0 -30 38v10q0 48 35 74q18 14 43 8q27 -2 38 10t4 27.5t-26 23.5q0 6 -4 2q-16 6 -20 4q-25 16 -22 44t18.5 54.5t14.5 53t-36 39.5q-285 -244 -358 -396q-24 -71 -25 -201q0 -34 2 -73zM449 702q-7 -3 -8 -7q0 -9 24 -23q16 -20 35 -15q8 31 -25 39v2q-2 2 -7 2t-7 2 h-12zM590 909l2 -4h2q6 2 10 6q-8 0 -14 -2zM725 1546q38 3 74 3q136 0 223 -44q8 -27 36.5 -35t57.5 -5t50.5 -8t19.5 -40l4 -4l2 -10q2 -2 2 4q50 -50 50 -69q0 -11 -18 -11h-5h-4q-35 4 -46 -30q-4 -14 -4 -29q0 -22 9 -46q14 -42 41 -55q25 -10 41 -4t13 25.5t-28 32.5 q-2 23 12 22q27 -2 52 -43q10 -18 10 -31q0 -16 -14 -26q-4 -4 -7 -4l-2 -2q-37 -27 -40 -114t-9 -103q-9 -19 -9 -32q0 -20 26 -22h4q36 0 57 35q10 18 4 41q-8 23 6.5 35t36 15t35.5 10.5t4 23.5q21 -11 35 -11q27 0 31 40q1 9 1 17q0 42 -26 69q10 43 33 16q20 -29 6 -59 q2 -10 5 -16.5t10 -12.5t11.5 -8t15.5 -6t13 -6q2 0 4 -2q20 -8 21 -27q0 -13 -10 -31q-24 -81 -116 -81q-27 0 -61 7q-31 -12 -51 -40.5t-38.5 -68.5t-30.5 -58q-44 -80 -44 -140q0 -58 42 -98q25 -23 51 -28t54 6.5t47.5 23.5t45.5 33q10 1 19 1q57 0 71 -59q5 -19 5 -35 q0 -45 -31 -81q-4 -16 -4 -19q180 211 180 482l-6 86q-7 -4 -15 -5q-23 0 -49 37q-20 29 -6 27q8 0 29 -16q20 4 30 12q-12 70 -36 135l-11.5 12t-9.5 11q0 4 -1 12t-1 14v2q-92 188 -273.5 304t-398.5 116q-41 0 -61 -2q-20 -4 -33 -6h-12q-66 -11 -119 -27zM752 1201 q-3 -15 -4 -27q0 -24 14 -33q20 8 29.5 39.5t2 59.5t-29.5 26q-2 0 -6 -1t-6 -1q10 -17 0 -63zM762 973q-10 -2 -10 -7q0 -7 20 -20h16q2 -2 -4 -8q25 18 11.5 28.5t-33.5 6.5zM862 1331l6 6q18 8 11 23q-2 4 -11 4q-2 2 -8 2q-2 0 -5 -1t-5 -1q-21 -4 -21 -21q0 -33 33 -12 zM853 1315q-9 -13 -9 -27q0 -20 18 -41q18 -25 6 -53.5t-11 -59t36 -40.5q10 25 42 64.5t48 74.5q10 21 10 44q0 14 -4 30q-11 46 -55 46q-7 0 -14 -1q-45 -6 -67 -37zM1196 1087q-8 0 -8 -4q0 -6 14 -20q-12 -31 15 -33q18 0 30 19q2 16 -17 28q-17 11 -30 11q-2 -1 -4 -1z " />
<glyph unicode="&#xd5;" horiz-adv-x="1900" d="M294 2175.5q-7 145.5 89 259.5l188 228q37 41 88 80q-45 88 -28.5 195.5t88.5 193.5l186 227q61 74 147.5 110.5t174.5 28.5q94 -8 170 -69l96 -82q109 -86 115 -240q4 -137 -91 -254l-188 -227q-39 -45 -88 -78q31 -68 31 -137q6 -139 -90 -254l-189 -228 q-59 -74 -144 -110.5t-175 -28.5q-98 10 -170 72l-97 80q-106 88 -113 233.5zM490 2193.5q-1 -63.5 42 -100.5l99 -80q25 -20 61 -24q86 -10 150 67l188 228q45 51 45 123q-4 49 -31 80h-10q-16 -33 -48 -48.5t-67 -7.5q-39 10 -60 45t-11 74l-4 2l-6 6l-41 33 q-37 -14 -72 -55l-189 -226q-45 -53 -46 -116.5zM825 2899.5q-4 -58.5 31 -97.5h37q4 0 10 -2t8 -2l21 74q10 41 46 60t75 9q39 -8 59 -44t10 -77l-28 -114l10 -9q41 18 71 56l189 227q49 55 45 123q-4 57 -41 92l-98 80q-27 20 -62 27q-86 6 -149 -70l-189 -225 q-41 -49 -45 -107.5zM119 834q0 346 243.5 588.5t587.5 242.5t588 -242.5t244 -588.5q0 -344 -244 -588t-588 -244t-587.5 244t-243.5 588zM258 813q14 -41 37.5 -81t57.5 -91t48 -76q10 -14 15.5 -32.5t4.5 -29.5l-3 -35q-2 -24 -2 -32v-2q-1 -6 -1 -11q0 -38 25 -63 q14 -18 45 -48.5t52.5 -57.5t31.5 -57l4 -2q68 -41 170 -74q6 0 24.5 7t78.5 11v2q0 8 20.5 19.5t52 27t46.5 25.5q19 22 18 43q0 28 -36 52q-43 29 -83 29q-18 0 -35 -5q-25 16 -96 80.5t-121 85.5q-23 20 -64.5 33.5t-75.5 20.5t-59.5 31.5t-25.5 67.5q-4 16 0 24.5t-5 22 t-10 17.5t-13.5 15t-15.5 14.5t-17.5 13.5t-16.5 12q-4 12 -3 23q0 38 44 59q22 10 41 10q28 0 47 -22q16 -16 17 -43q29 2 69.5 56t73.5 60q12 10 44 13.5t47.5 10.5t0.5 34q8 8 32 18l38 17q14 6 22.5 24.5t-12.5 42.5q-12 55 -60 69q-9 3 -18 2q-35 0 -53 -46 q-8 -3 -15 -3q-26 0 -30 38v10q0 48 35 74q18 14 43 8q27 -2 38 10t4 27.5t-26 23.5q0 6 -4 2q-16 6 -20 4q-25 16 -22 44t18.5 54.5t14.5 53t-36 39.5q-285 -244 -358 -396q-24 -71 -25 -201q0 -34 2 -73zM449 702q-7 -3 -8 -7q0 -9 24 -23q16 -20 35 -15q8 31 -25 39v2 q-2 2 -7 2t-7 2h-12zM590 909l2 -4h2q6 2 10 6q-8 0 -14 -2zM725 1546q38 3 74 3q136 0 223 -44q8 -27 36.5 -35t57.5 -5t50.5 -8t19.5 -40l4 -4l2 -10q2 -2 2 4q50 -50 50 -69q0 -11 -18 -11h-5h-4q-35 4 -46 -30q-4 -14 -4 -29q0 -22 9 -46q14 -42 41 -55q25 -10 41 -4 t13 25.5t-28 32.5q-2 23 12 22q27 -2 52 -43q10 -18 10 -31q0 -16 -14 -26q-4 -4 -7 -4l-2 -2q-37 -27 -40 -114t-9 -103q-9 -19 -9 -32q0 -20 26 -22h4q36 0 57 35q10 18 4 41q-8 23 6.5 35t36 15t35.5 10.5t4 23.5q21 -11 35 -11q27 0 31 40q1 9 1 17q0 42 -26 69 q10 43 33 16q20 -29 6 -59q2 -10 5 -16.5t10 -12.5t11.5 -8t15.5 -6t13 -6q2 0 4 -2q20 -8 21 -27q0 -13 -10 -31q-24 -81 -116 -81q-27 0 -61 7q-31 -12 -51 -40.5t-38.5 -68.5t-30.5 -58q-44 -80 -44 -140q0 -58 42 -98q25 -23 51 -28t54 6.5t47.5 23.5t45.5 33q10 1 19 1 q57 0 71 -59q5 -19 5 -35q0 -45 -31 -81q-4 -16 -4 -19q180 211 180 482l-6 86q-7 -4 -15 -5q-23 0 -49 37q-20 29 -6 27q8 0 29 -16q20 4 30 12q-12 70 -36 135l-11.5 12t-9.5 11q0 4 -1 12t-1 14v2q-92 188 -273.5 304t-398.5 116q-41 0 -61 -2q-20 -4 -33 -6h-12 q-66 -11 -119 -27zM752 1201q-3 -15 -4 -27q0 -24 14 -33q20 8 29.5 39.5t2 59.5t-29.5 26q-2 0 -6 -1t-6 -1q10 -17 0 -63zM762 973q-10 -2 -10 -7q0 -7 20 -20h16q2 -2 -4 -8q25 18 11.5 28.5t-33.5 6.5zM862 1331l6 6q18 8 11 23q-2 4 -11 4q-2 2 -8 2q-2 0 -5 -1t-5 -1 q-21 -4 -21 -21q0 -33 33 -12zM853 1315q-9 -13 -9 -27q0 -20 18 -41q18 -25 6 -53.5t-11 -59t36 -40.5q10 25 42 64.5t48 74.5q10 21 10 44q0 14 -4 30q-11 46 -55 46q-7 0 -14 -1q-45 -6 -67 -37zM1196 1087q-8 0 -8 -4q0 -6 14 -20q-12 -31 15 -33q18 0 30 19 q2 16 -17 28q-17 11 -30 11q-2 -1 -4 -1z" />
<glyph unicode="&#xd9;" horiz-adv-x="2420" d="M160 -41v356h2q0 2 -2 7v4q0 37 20 73q6 10 65.5 42t126.5 63l126 57q59 27 61 29q57 27 151.5 59.5t155 61t92.5 67.5q-8 76 -84.5 256t-82.5 291l-2 42q0 177 79 312q88 152 258 213h84h84q170 -61 258 -213q79 -136 79 -312q0 -21 -1 -42q-6 -111 -83 -291t-85 -256 q33 -39 93.5 -67.5t154.5 -61.5t152 -59q2 -2 61 -29l126 -57q67 -31 126 -62.5t66 -42.5q20 -37 20 -73v-4q-2 -4 -2 -7h2v-356h-20h-1031h-1030h-20z" />
<glyph unicode="&#xdb;" horiz-adv-x="2420" d="M160 -41v356h2q0 2 -2 7v4q0 37 20 73q6 10 65.5 42t126.5 63l126 57q59 27 61 29q57 27 151.5 59.5t155 61t92.5 67.5q-8 76 -84.5 256t-82.5 291l-2 42q0 177 79 312q88 152 258 213h84h84q170 -61 258 -213q79 -136 79 -312q0 -21 -1 -42q-6 -111 -83 -291t-85 -256 q33 -39 93.5 -67.5t154.5 -61.5t152 -59q2 -2 61 -29l126 -57q67 -31 126 -62.5t66 -42.5q20 -37 20 -73v-4q-2 -4 -2 -7h2v-356h-20h-1031h-1030h-20z" />
<glyph unicode="&#xe3;" d="M-656 510.5q-7 145.5 89 259.5l188 228q37 41 88 80q-45 88 -28.5 195.5t88.5 193.5l186 227q61 74 147.5 110.5t174.5 28.5q94 -8 170 -69l96 -82q109 -86 115 -240q4 -137 -91 -254l-188 -227q-39 -45 -88 -78q31 -68 31 -137q6 -139 -90 -254l-189 -228 q-59 -74 -144 -110.5t-175 -28.5q-98 10 -170 72l-97 80q-106 88 -113 233.5zM-460 528.5q-1 -63.5 42 -100.5l99 -80q25 -20 61 -24q86 -10 150 67l188 228q45 51 45 123q-4 49 -31 80h-10q-16 -33 -48 -48.5t-67 -7.5q-39 10 -60 45t-11 74l-4 2l-6 6l-41 33 q-37 -14 -72 -55l-189 -226q-45 -53 -46 -116.5zM-125 1234.5q-4 -58.5 31 -97.5h37q4 0 10 -2t8 -2l21 74q10 41 46 60t75 9q39 -8 59 -44t10 -77l-28 -114l10 -9q41 18 71 56l189 227q49 55 45 123q-4 57 -41 92l-98 80q-27 20 -62 27q-86 6 -149 -70l-189 -225 q-41 -49 -45 -107.5z" />
<glyph unicode="&#xf1;" d="M-656 510.5q-7 145.5 89 259.5l188 228q37 41 88 80q-45 88 -28.5 195.5t88.5 193.5l186 227q61 74 147.5 110.5t174.5 28.5q94 -8 170 -69l96 -82q109 -86 115 -240q4 -137 -91 -254l-188 -227q-39 -45 -88 -78q31 -68 31 -137q6 -139 -90 -254l-189 -228 q-59 -74 -144 -110.5t-175 -28.5q-98 10 -170 72l-97 80q-106 88 -113 233.5zM-460 528.5q-1 -63.5 42 -100.5l99 -80q25 -20 61 -24q86 -10 150 67l188 228q45 51 45 123q-4 49 -31 80h-10q-16 -33 -48 -48.5t-67 -7.5q-39 10 -60 45t-11 74l-4 2l-6 6l-41 33 q-37 -14 -72 -55l-189 -226q-45 -53 -46 -116.5zM-125 1234.5q-4 -58.5 31 -97.5h37q4 0 10 -2t8 -2l21 74q10 41 46 60t75 9q39 -8 59 -44t10 -77l-28 -114l10 -9q41 18 71 56l189 227q49 55 45 123q-4 57 -41 92l-98 80q-27 20 -62 27q-86 6 -149 -70l-189 -225 q-41 -49 -45 -107.5z" />
<glyph unicode="&#xf5;" d="M-656 510.5q-7 145.5 89 259.5l188 228q37 41 88 80q-45 88 -28.5 195.5t88.5 193.5l186 227q61 74 147.5 110.5t174.5 28.5q94 -8 170 -69l96 -82q109 -86 115 -240q4 -137 -91 -254l-188 -227q-39 -45 -88 -78q31 -68 31 -137q6 -139 -90 -254l-189 -228 q-59 -74 -144 -110.5t-175 -28.5q-98 10 -170 72l-97 80q-106 88 -113 233.5zM-460 528.5q-1 -63.5 42 -100.5l99 -80q25 -20 61 -24q86 -10 150 67l188 228q45 51 45 123q-4 49 -31 80h-10q-16 -33 -48 -48.5t-67 -7.5q-39 10 -60 45t-11 74l-4 2l-6 6l-41 33 q-37 -14 -72 -55l-189 -226q-45 -53 -46 -116.5zM-125 1234.5q-4 -58.5 31 -97.5h37q4 0 10 -2t8 -2l21 74q10 41 46 60t75 9q39 -8 59 -44t10 -77l-28 -114l10 -9q41 18 71 56l189 227q49 55 45 123q-4 57 -41 92l-98 80q-27 20 -62 27q-86 6 -149 -70l-189 -225 q-41 -49 -45 -107.5z" />
<glyph unicode="&#x152;" horiz-adv-x="4327" d="M2007 14v1420v104h2214v-1524h-2214zM2145 256l618 573l-618 465v-1038zM2210 1399l924 -676l924 676h-1848zM2225 154h1736l-563 618l-268 -199l-266 189zM3488 834l596 -641v1101zM119 834q0 346 243.5 588.5t587.5 242.5t588 -242.5t244 -588.5q0 -344 -244 -588 t-588 -244t-587.5 244t-243.5 588zM258 813q14 -41 37.5 -81t57.5 -91t48 -76q10 -14 15.5 -32.5t4.5 -29.5l-3 -35q-2 -24 -2 -32v-2q-1 -6 -1 -11q0 -38 25 -63q14 -18 45 -48.5t52.5 -57.5t31.5 -57l4 -2q68 -41 170 -74q6 0 24.5 7t78.5 11v2q0 8 20.5 19.5t52 27 t46.5 25.5q19 22 18 43q0 28 -36 52q-43 29 -83 29q-18 0 -35 -5q-25 16 -96 80.5t-121 85.5q-23 20 -64.5 33.5t-75.5 20.5t-59.5 31.5t-25.5 67.5q-4 16 0 24.5t-5 22t-10 17.5t-13.5 15t-15.5 14.5t-17.5 13.5t-16.5 12q-4 12 -3 23q0 38 44 59q22 10 41 10q28 0 47 -22 q16 -16 17 -43q29 2 69.5 56t73.5 60q12 10 44 13.5t47.5 10.5t0.5 34q8 8 32 18l38 17q14 6 22.5 24.5t-12.5 42.5q-12 55 -60 69q-9 3 -18 2q-35 0 -53 -46q-8 -3 -15 -3q-26 0 -30 38v10q0 48 35 74q18 14 43 8q27 -2 38 10t4 27.5t-26 23.5q0 6 -4 2q-16 6 -20 4 q-25 16 -22 44t18.5 54.5t14.5 53t-36 39.5q-285 -244 -358 -396q-24 -71 -25 -201q0 -34 2 -73zM449 702q-7 -3 -8 -7q0 -9 24 -23q16 -20 35 -15q8 31 -25 39v2q-2 2 -7 2t-7 2h-12zM590 909l2 -4h2q6 2 10 6q-8 0 -14 -2zM725 1546q38 3 74 3q136 0 223 -44 q8 -27 36.5 -35t57.5 -5t50.5 -8t19.5 -40l4 -4l2 -10q2 -2 2 4q50 -50 50 -69q0 -11 -18 -11h-5h-4q-35 4 -46 -30q-4 -14 -4 -29q0 -22 9 -46q14 -42 41 -55q25 -10 41 -4t13 25.5t-28 32.5q-2 23 12 22q27 -2 52 -43q10 -18 10 -31q0 -16 -14 -26q-4 -4 -7 -4l-2 -2 q-37 -27 -40 -114t-9 -103q-9 -19 -9 -32q0 -20 26 -22h4q36 0 57 35q10 18 4 41q-8 23 6.5 35t36 15t35.5 10.5t4 23.5q21 -11 35 -11q27 0 31 40q1 9 1 17q0 42 -26 69q10 43 33 16q20 -29 6 -59q2 -10 5 -16.5t10 -12.5t11.5 -8t15.5 -6t13 -6q2 0 4 -2q20 -8 21 -27 q0 -13 -10 -31q-24 -81 -116 -81q-27 0 -61 7q-31 -12 -51 -40.5t-38.5 -68.5t-30.5 -58q-44 -80 -44 -140q0 -58 42 -98q25 -23 51 -28t54 6.5t47.5 23.5t45.5 33q10 1 19 1q57 0 71 -59q5 -19 5 -35q0 -45 -31 -81q-4 -16 -4 -19q180 211 180 482l-6 86q-7 -4 -15 -5 q-23 0 -49 37q-20 29 -6 27q8 0 29 -16q20 4 30 12q-12 70 -36 135l-11.5 12t-9.5 11q0 4 -1 12t-1 14v2q-92 188 -273.5 304t-398.5 116q-41 0 -61 -2q-20 -4 -33 -6h-12q-66 -11 -119 -27zM752 1201q-3 -15 -4 -27q0 -24 14 -33q20 8 29.5 39.5t2 59.5t-29.5 26 q-2 0 -6 -1t-6 -1q10 -17 0 -63zM762 973q-10 -2 -10 -7q0 -7 20 -20h16q2 -2 -4 -8q25 18 11.5 28.5t-33.5 6.5zM862 1331l6 6q18 8 11 23q-2 4 -11 4q-2 2 -8 2q-2 0 -5 -1t-5 -1q-21 -4 -21 -21q0 -33 33 -12zM853 1315q-9 -13 -9 -27q0 -20 18 -41q18 -25 6 -53.5 t-11 -59t36 -40.5q10 25 42 64.5t48 74.5q10 21 10 44q0 14 -4 30q-11 46 -55 46q-7 0 -14 -1q-45 -6 -67 -37zM1196 1087q-8 0 -8 -4q0 -6 14 -20q-12 -31 15 -33q18 0 30 19q2 16 -17 28q-17 11 -30 11q-2 -1 -4 -1z" />
<glyph unicode="&#x2dc;" horiz-adv-x="512" d="M-656 510.5q-7 145.5 89 259.5l188 228q37 41 88 80q-45 88 -28.5 195.5t88.5 193.5l186 227q61 74 147.5 110.5t174.5 28.5q94 -8 170 -69l96 -82q109 -86 115 -240q4 -137 -91 -254l-188 -227q-39 -45 -88 -78q31 -68 31 -137q6 -139 -90 -254l-189 -228 q-59 -74 -144 -110.5t-175 -28.5q-98 10 -170 72l-97 80q-106 88 -113 233.5zM-460 528.5q-1 -63.5 42 -100.5l99 -80q25 -20 61 -24q86 -10 150 67l188 228q45 51 45 123q-4 49 -31 80h-10q-16 -33 -48 -48.5t-67 -7.5q-39 10 -60 45t-11 74l-4 2l-6 6l-41 33 q-37 -14 -72 -55l-189 -226q-45 -53 -46 -116.5zM-125 1234.5q-4 -58.5 31 -97.5h37q4 0 10 -2t8 -2l21 74q10 41 46 60t75 9q39 -8 59 -44t10 -77l-28 -114l10 -9q41 18 71 56l189 227q49 55 45 123q-4 57 -41 92l-98 80q-27 20 -62 27q-86 6 -149 -70l-189 -225 q-41 -49 -45 -107.5z" />
<glyph unicode="&#x2013;" horiz-adv-x="1024" d="M205 512v205h614v-205h-614z" />
<glyph unicode="&#x2014;" d="M205 512v205h1638v-205h-1638z" />
<glyph unicode="&#x2039;" horiz-adv-x="1931" d="M160 707l919 708v-534l693 534v-1417l-693 534v-534z" />
<glyph unicode="&#x203a;" horiz-adv-x="1976" d="M182 -6v1417l692 -534v534l920 -709l-920 -708v534z" />
<glyph unicode="&#x2122;" horiz-adv-x="4038" d="M2213 293q0 123 110 209t267 86q160 0 160 -27v778v269q0 23 16.5 38t38.5 15h1030q23 0 39.5 -15.5t16.5 -37.5v-269v-1073h-2q-16 -94 -107.5 -181t-226.5 -87q-156 0 -265.5 87t-109.5 208q0 123 109.5 209t265.5 86q162 0 162 -27v692h-793v-960v-27h-2 q-14 -94 -106.5 -181t-225.5 -87q-156 0 -266.5 87t-110.5 208zM164 1642l196 197l494 -491l-197 -197l-82 82q2 -74 75 -204t210 -267q215 -215 461 -293l25 -8l-99 98l199 197l491 -492l-196 -198q-72 -72 -187 -73q-113 0 -267 70q-310 141 -646 480q-303 303 -436 620 q-77 184 -77 315q0 94 40 160z" />
<glyph unicode="&#xe000;" horiz-adv-x="500" d="M0 0v0v0v0v0z" />
</font>
</defs>
</svg>
